the guardian salvataggio in mare streaming nowvideo

 

 

 

 

The Guardian (2006).H264.Ita.eng.sub.ita.iCV-MIRCrew The Guardian (2006)Durante una delle spedizioni di salvataggio, per prestare soccorso ad un peschereccio, a causa di una tragica fatalit tutto ilto video : 1mn 5s Stream size : 445 MiB (20) Language : Italian Default : Yes Forced : Yes. Files. Size. The Guardian (2006).H264.Ita.eng.sub.ita.iCV-MIRCrew.ita.srt.https://www.demonoid.pw/files/details/3656076/ http://www.

bt-scene.cc/ the-guardian-salvataggio-in-mare-. h264-italian-english-ac3-5-1-sub-ita-icv-mircrew-tf5680256.html https://zooqle.com/ the-guardian-salvataggio-in-mare-2006-h264-italian-english-ac3 The Guardian - Chi salvare. Giorgio Perkins. The Guardian - USCG training-music-video (Kasabian - Club foot).

guppykaratemann. Durante una delle spedizioni di salvataggio, per prestare soccorso ad un peschereccio, a causa di una tragica fatalit tutto il suo equipaggio perde la vita, tra cui il suo migliore amico Carl. Release info : The.Guardian.Salvataggio.in.mare .2006.H264.Italian.English.Ac3.5.1.sub.ita.iCV. Enjoy free downloading The guardian Salvataggio in mare.mp3 which of size 5.68 MB, duration 02:59 and bitrate is 266 Kbps, you can also download High Quality this song. The Guardian io non mollo. by : marghe333. The Guardian (Il salvataggio).mp4. by : MAURO TRINCI. The Guardian - USCG training-music-video (Kasabian - Club foot). Coast Guard Tribute (The Guardian) - Продолжительность: 4:13 Jacob Saylor 202 301 просмотр.The guardian Salvataggio in mare - Продолжительность: 2:59 ermattoo 75 925 просмотров. Login with Facebook. The guardian Salvataggio in mare. 0. Tweet.The Guardian io non mollo. scena finale. The Guardian (Il salvataggio).mp4. IL salvataggio una delle pi belle scene del film omonimo. Salvataggio in mare - Fregene - salvataggio congiunto patt Vigili del Fuoco Salvano Ragazzo - Fiume Panaro.mpg.Salvataggio in mare. Corso da Bagnino di Salvataggio -Salvataggio a nuoto For faster navigation, this Iframe is preloading the Wikiwand page for The Guardian - Salvataggio in mare. Related links. The Guardian.2006.720p.AVC.RUS.leonardo59.BDRip.mkv 6.528G. The Guardian.2006.PAL.DVD9.BGaudio-SKmbr 7.445G. TheGuardianSalvataggioinmare(2006).H264.Italian.English.Ac3.5.1.sub.ita.iCV-MIRCrew ilcorsaronero.info. the guardian (2006) [en,it] salvataggio in mare j.mkvBT2018-01-112.0 GB1 latest world video news, hot newly received or noteworthy information, especially about recent or important events. Artemis Fowl 08 - The Last Guardian by Eion Colfer.torrent1.86 MB.[Laboratory] Shugosha Giselle to Shokushu no Machi -Guardian of the Garden--1280x.zip.torrent6.53 MB. The Guardian Salvataggio in mare - Scena dei record.mp3. Play Download.The Guardian Jede Sekunde zhlt Music Video HD Bryan Adams - Never let go.mp3. Play Download. 30/10/2008 GenovaFoce. Guardian Giselle and the Tentacle City -Guardian of the Garden-.torrent272.81 MB. [Golumpa] The Silver Guardian (Gin no Guardian) [English Dub] [FuniDub 720p x264 AAC] [MKV].torrent2.73 GB. theguardian(2006)[en,it]salvataggioinmarej.mkv TorrentProject. Trailer The Guardian ita YouTube. The guardian Salvataggio in mare ermattoo. Unsubscribe from ermattoo.The Guardian Streaming Megavideo HD. Just Torrent iTALiANi The Guardian. Torrent Details For "The Guardian - Salvataggio in mare (2006) H264 Italian English Ac3 5 1 sub ita iCV-MI"Chroma subsampling : 4:2:0 Bit depth : 8 bits Scan type : Progressive Bits/(PixelFrame) : 0.194 Stream size : 1.22 GiB (57) Writing library : x264 core 130 r2273 Encoding settings : cabac1 The Guardian - Chi salvare. Giorgio Perkins. SALVATAGGIO a Mondello, 24 agosto 2016. mario cucina. Lui tornato. IL salvataggio una delle pi belle scene del film omonimo.Clip from The Guardian. It is personally one if not my favorite part in a movie. The Guardian - Chi salvare. E. Ashton Kutcher is an PUA.The Guardian - USCG training-music-video (Kasabian - Club foot). about the guardian (2006) [en,it] salvataggio in mare j.mkvbtbt Titolo originale The Guardian Lingua originale inglese Paese di produzione USA Anno 2006 Durata 139 minDurante una delle spedizioni di salvataggio, per prestare soccorso ad un peschereccio, a causato video : 1mn 5s Stream size : 445 MiB (20) Language : Italian Default : Yes Forced : Yes. Titolo originale The Guardian Lingua originale inglese Paese di produzione USA Anno 2006 Durata 139 minDurante una delle spedizioni di salvataggio, per prestare soccorso ad un peschereccio, a causato video : 1mn 5s Stream size : 445 MiB (20) Language : Italian Default : Yes Forced : Yes. The guardian Salvataggio in mare. Description. Una delle scene piu belle di questo magnifico film. Your search - the guardian salvataggio in mare hd download - did not match any documents. Make sure that all words are spelled correctly. Try different keywords. Trama: Sopravvissuto a una terrificante tempesta, Ben Randall - addetto al salvataggio in mare - viene inviato a insegnare in una scuola che addestra le migliori reclute: ed qui che string. The-Guardian--Salvataggio-in-mare-(2006)-H264-Italian-Englis5 months ago. Torrent Info. NameStream: Download torrents safely and Anonymously with Free Torrent VPN by SPYOFF. Get VPN NOW! the guardian (2006) [en,it] salvataggio in mare j.mkv LAST 20 MEGAUPLOAD SEARCHES: how i met 5x16, 30 rock s01e19, japanese piss drinking, the guardian salvataggio in mare, kristina y165 vladmodel, vmware workstation 6, http 24hour porn page 1 html, littlebigplanet iso english, iphone 2 1, creampiemania maddy Titolo originale The Guardian Lingua originale inglese Paese di produzione USA Anno 2006 Durata 139 minDurante una delle spedizioni di salvataggio, per prestare soccorso ad un peschereccio, a causato video : 1mn 5s Stream size : 445 MiB (20) Language : Italian Default : Yes Forced : Yes. 4 Uomo In Mare Salvataggio Spettacolare Goodhelp88 Rimini.MP3.5 I Migranti Finiscono In Mare, Il Video Del Drammatico Salvataggio.MP3. Titolo originale The Guardian Lingua originale inglese Paese di produzione USA Anno 2006 Durata 139 minDurante una delle spedizioni di salvataggio, per prestare soccorso ad un peschereccio, a causato video : 1mn 5s Stream size : 445 MiB (20) Language : Italian Default : Yes Forced : Yes. 13E027CB7D40BC755978DAFC27CE323DD1E4FE38. Added : 4 months ago in Movies - Movies. Size : 2.13 GB. The Guardian - Salvataggio in mare (2006) H264 ItalianIl capo di 1 classe Ben Randall un veterano dei Guardia Costiera degli Stati Uniti, con alle spalle innumerevoli salvataggi in mare. www.icv-crew.org.txt 78 Byte. Hash Code. 13e027cb7d40bc755978dafc27ce323dd1e4fe38. Description. The Guardian - Salvataggio in mare (2006).H264.

Italian.English.Ac3.5.1.sub.ita.iCV-MIRCrew. No found only original release. the guardian salvataggio in mare 1 results.The Guardian - Salvataggio in mare (2006).H264.Italian.English.Ac3.5.1.sub.ita.iCV-MIRCrew. posted by robbyrs3 in Movies - Drama. No found only original release. My release is always in double track audio italian and Original audio for select it use VLC or dvd player home not use wmp. The Guardian - Salvataggio in mare (2006). size : 7.68 GiB Duration : 2 h 18 min Overall bit rate : 7 916 kb/s Movie name : The Guardian - Salvataggio in Mare (2006) - PirateMKV Encoded date : UTCdepth : 16 bits Compression mode : Lossy Stream size : 1.46 GiB (19) Title : DTS 5.1 Language : Italian Default : Yes Forced : No. Other articles: WikiPedia - the guardian salvataggio in mare ita the guardian salvataggio in mare ita - google search. Not Found. The Guardian (Il salvataggio).mp4. Hipotermia-Guardianes de Alta Mar.mpg. The Guardian - Ending Clip. Ashton Kutcher is an PUA. MEN OF HONOR: 12 passi. Смотреть The guardian Salvataggio in mare Ютуб видео, музыка, фильмы, обзоры, игровое и познавательное видео, и ещё многое другое,у нас найдёшь всё - мы ждём тебя! Salvataggio Guardian 2006 Mare The avi In. Size712.64MB. www.mp4view.com.ng - Download Youtube Videos, Soundcloud Music, Tooxclusive Music, Vevo2tube Videos, Morewap Videos, Notjustok Music, Naijaloded Music In 720p, Mp4, 3Gp, FLV For Desktop, Laptop, Mobile, Android, Smartphone and PC Video TheGuardian-Salvataggioinmare (2006)H264ItalianEnglishAc351subitaiCV-MIRCrew. Il film inizia con una voce fuori campo che parla di una leggenda di un uomo che vive in fondo al mare.Durante una delle spedizioni di salvataggio, per prestare soccorso ad un peschereccio, a causato video : 1mn 5s Stream size : 445 MiB (20) Language : Italian Default : Yes Forced : Yes. The Guardian Salvataggio In Mare (02:59) - видео mp4. Смотреть клип онлайн или скачать mp3 на delormusic.info Or try with terms : ali gonulta mektup yazar m mektup, yasuo rework riot april fools compilation league of legends, lpg 039 de s z nt uyar s, pool party at breathless cancun, jerry and harry legend rank al m, the guardian salvataggio in mare.

related:


Copyright ©